logo

18+ The Child In Time 2018 Movies 720p HDRip x264 5.1 with Sample...

  • Category Movies
  • Type HD
  • Language English
  • Total size 837.3 MB
  • Uploaded By nehalpuja
  • Downloads 705
  • Last checked 4 days ago
  • Date uploaded 1 week ago
  • Seeders 20
  • Leechers 19

Infohash : 3D5A63E385F396B0054C20F89AF7CE6F503E3909

18+ The Child In Time 2018 Movies 720p HDRip x264 5.1 with Sample ☻rDX☻
===============================================================================================

SCREEN SHOTS:

Download 18+ The Child In Time 2018 Movies 720p HDRip x264 5.1 with Sample ☻rDX☻ Torrent

or

http://iphonehosting.eu/2018/7/broadband/1.html

File size : 828 MiB
Duration : 1 h 29 min
Overall bit rate : 1 298 kb/s
Movie name : The Child In Time 2018 Movies 720p HDRip x264 5.1 ☻rDX☻

Video
ID : 2
Format : AVC
Format/Info : Advanced Video Codec
Format profile : [email protected]
Format settings, CABAC : Yes
Format settings, ReFrames : 4 frames
Codec ID : V_MPEG4/ISO/AVC
Duration : 1 h 29 min
Bit rate : 912 kb/s
Width : 960 pixels
Height : 716 pixels
Display aspect ratio : 16:9
Original display aspect ratio : 16:9
Frame rate mode : Constant
Frame rate : 25.000 FPS
Color space : YUV
Chroma subsampling : 4:2:0
Bit depth : 8 bits
Scan type : Progressive
Bits/(Pixel*Frame) : 0.053
Stream size : 566 MiB (68%)
Title : ☻rDX☻
Writing library : x264

Audio
ID : 1
Format : AC-3
Format/Info : Audio Coding 3
Mode extension : CM (complete main)
Format settings, Endianness : Big
Codec ID : A_AC3
Duration : 1 h 29 min
Bit rate mode : Constant
Bit rate : 384 kb/s
Channel(s) : 6 channels
Channel positions : Front: L C R, Side: L R, LFE
Sampling rate : 48.0 kHz
Frame rate : 31.250 FPS (1536 spf)
Bit depth : 16 bits
Compression mode : Lossy
Delay relative to video : -16 ms
Stream size : 245 MiB (30%)
Title : ☻rDX☻
Language : English
Default : No
Forced : No

Download 18+ The Child In Time 2018 Movies 720p HDRip x264 5.1 with Sample ☻rDX☻ Torrent

IMDB : http://www.imdb.com/title/tt6540078

Files:

18+ The Child In Time 2018 Movies 720p HDRip x264 5.1 with Sample ☻rDX☻
  • Sample ~ 18+ The Child In Time 2018 Movies 720p HDRip x264 5.1 ☻rDX☻.mkv (9.5 MB)
  • 18+ The Child In Time 2018 Movies 720p HDRip x264 5.1 ☻rDX☻.mkv (827.8 MB)

There are currently no comments. Feel free to leave one :)

Code:

  • udp://tracker.coppersurfer.tk:6969/announce
  • udp://tracker.leechers-paradise.org:6969/announce
  • udp://tracker.pirateparty.gr:6969/announce
  • udp://eddie4.nl:6969/announce
  • udp://tracker.zer0day.to:1337/announce
  • udp://9.rarbg.me:2710/announce
  • udp://9.rarbg.to:2710/announce
  • udp://public.popcorn-tracker.org:6969/announce
  • udp://p4p.arenabg.ch:1337/announce
  • udp://tracker.vanitycore.co:6969/announce
  • udp://ipv4.tracker.harry.lu:80/announce
  • udp://tracker.opentrackr.org:1337/announce
  • udp://p4p.arenabg.com:1337/announce
  • udp://shadowshq.yi.org:6969/announce